Роутер с билингом Nodeny на базе Freebsd [2010 г.]

Обучающие материалы по линукс, юникс

<t>Оценка торрента</t>

5
0
Голосов нет
4
0
Голосов нет
3
0
Голосов нет
2
0
Голосов нет
1
0
Голосов нет
 
Всего голосов: 0

Торрент Сидеров Личеров Размер
torrent_14001.torrent
23 10 3.07 ГБ
Аватара пользователя
Tutorial
Сообщения: 9024
Зарегистрирован: 17 янв 2012, 23:53

Роутер с билингом Nodeny на базе Freebsd [2010 г.]

Сообщение Tutorial » 08 май 2012, 11:59

Роутер с билингом Nodeny на базе Freebsd
Производитель: Mensh
Год выпуска: 2010
Язык: русский
Описание: Собственный видеоурок по установке роутера на базе freebsd 8.0
В качестве билинга используеться сиситема Nodeny.
В состав урока входит:
1. Установка системы (обновление системы, обнавление портов)
2. Базавая настройка (настройка сетевых интрфейсов шлюза и т.д.)
3. Установка софта их портов неоюходимого для работы билинга. (mysql, apache, php)
4. Установка и базовая настройка билинга.
5. Установка dhcp сервера в связке с билингом.
6. Установка WEbmin.
7. Базовая настройка перенапрявляющего dns сервера.
Урок делался для себя. Просто для тренировки.
Видео кодек: DivX
Видео: Format : TechSmith Codec ID : tscc Codec ID/Info : TechSmith Screen Capture Duration : 3h 30mn Bit rate : 671 Kbps Width : 720 pixels Height : 480 pixels Display aspect ratio : 1.500 Frame rate : 15.000 fps Standard : NTSC Resolution : 32 bits Bits/(Pixel*Frame) : 0.129 Stream size : 1 013 MiB (32%)
Аудио: Format : PCM Format settings, Endianness : Little Format settings, Sign : Unsigned Codec ID : 1 Codec ID/Hint : Microsoft Duration : 3h 30mn Bit rate mode : Constant Bit rate : 1 411.2 Kbps Channel(s) : 2 channels Sampling rate : 44.1 KHz Resolution : 16 bits Stream size : 2.08 GiB (68%) Interleave, duration : 1000 ms (15.00 video frames) Interleave, preload duration : 750 ms
Скриншоты
У вас нет необходимых прав для просмотра вложений в этом сообщении.