Аудио


Сообщение

Аудио Евгений Шварц - Снежная королева [Е.Перов, Г.Новожилова, В.Сперантова, К.Коренева, А.Соболева, 1969, детская литература, lossless]

Сообщение Nik » 20 мар 2014, 00:06

Снежная королева

Год выпуска: 1969
Автор: Евгений Шварц
Исполнитель: Е.Перов, Г.Новожилова, В.Сперантова, К.Коренева, А.Соболева
Жанр: детская литература
Издательство: Мелодия
Тип: аудиоспектакль
Аудио кодек: FLAC (image + .cue)
Битрейт аудио: lossless

Продолжительность: 01:08:31
Описание:
На этом диске – прекрасная сказка, любимая многими поколениями – «Снежная королева». Написал ее знаменитый датский писатель Ганс Христиан Андерсен, а пересказал ее для нас по-новому, переложил для театра не менее замечательный и талантливый писатель Евгений Львович Шварц (21 октября 1896 г. – 15 января 1958 г.). Его называли «личностью исключительной по иронии, уму, доброте и благородству», «чудесным писателем, нежным к человеку и злым ко всему, что мешает ему жить».

Евгений Шварц родился в Казани. Он очень рано научился читать, мечтал стать «романистом». Обладая развитым воображением, мальчик выдумывал различные истории, иногда пугая самого себя до полусмерти.

После окончания гимназии он поступил на юридический факультет Московского Университета. Но проучился там немного, в это время молодой человек увлекся театром. Правда, и актерская карьера Шварца продолжалась недолго, только около четырех лет. В 1921 году Евгений Шварц переезжает в Петроград (теперь этот город называется Санкт-Петербург)... И здесь начинается его литературная деятельность. Сначала Шварц работал секретарем у детского писателя, замечательные и добрые стихи которого наверняка тебе знакомы, – Корнея Ивановича Чуковского. Позже начал сотрудничать с детскими журналами «Чиж» и «Еж». Позже Евгений Шварц работал под руководством Самуила Яковлевича Маршака.

Шварц стеснялся и смущался, когда его называли писателем. Он говорил, что может называть себя драматургом – поскольку есть такая профессия, но писатель – слишком высокое слово...
Он «пересказывал» старые сказки и сочинял свои собственные, не менее увлекательные. «Красная Шапочка», «Снежная королева», «Золушка», «Сказка о потерянном времени», «Рассеянный волшебник» и многие другие. Работая над «Снежной королевой» Евгений Львович Шварц практически полностью сохранил андерсеновский сюжет: мальчика Кейя похищает злая, но прекрасная Снежная Королева, и на его поиски пускается его сестра Герда. Она проходит через труднейшие испытания, сталкивается с множеством колоритных персонажей, которые, проникнувшись к ней сочувствием, помогают девочке добраться до Северного полюса… Герда находит брата, и от ее любви его ледяное сердце снова становится теплым…

Для своей последней волшебной истории про «Обыкновенное чудо» Евгений Шварц нашел простые, но очень верные слова: «Сказка рассказывается не для того, чтобы скрыть, а для того, чтобы открыть, сказать во всю силу, во весь голос то, что думаешь».
Доп. информация:
Номер диска в каталоге: MEL CD 50 01316
X Lossless Decoder version 20080926 (93.3)

XLD extraction logfile from 2009-01-22 03:01:08 +0300

/ Снежная королева

Used drive : PIONEER DVD-RW DVR-K06A (revision Q631)

Use cdparanoia mode : YES (CDParanoia III 9.8 engine)
Disable audio cache : OK for the drive with cache less than 370KB
Make use of C2 pointers : YES
Read offset correction : 48
Max retry count : 100

TOC of the extracted CD
Track | Start | Length | Start sector | End sector
---------------------------------------------------------
1 | 00:00:00 | 16:43:21 | 0 | 75245
2 | 16:43:21 | 16:57:12 | 75246 | 151532
3 | 33:40:33 | 17:34:06 | 151533 | 230588
4 | 51:14:39 | 17:17:34 | 230589 | 308397

All Tracks
Filename : /Volumes/Teac/Аудио/Аудиокниги/Мелодия/Мелодия-детям/Снежная королева/Снежная королева.flac
CRC32 hash (test run) : 421941B0
CRC32 hash : 421941B0
CRC32 hash (skip zero) : 558A1D8F
Statistics
Read error : 0
Skipped (treated as error) : 0
Edge jitter error (maybe fixed) : 0
Atom jitter error (maybe fixed) : 0
Drift error (maybe fixed) : 0
Dropped bytes error (maybe fixed) : 0
Duplicated bytes error (maybe fixed) : 0
Inconsistency in error sectors : 0

Track 01
CRC32 hash (test run) : C6B75720
CRC32 hash : C6B75720
CRC32 hash (skip zero) : 5E72CA40
AccurateRip signature : 9C58F34A
->Track not present in AccurateRip database.
Statistics
Read error : 0
Skipped (treated as error) : 0
Edge jitter error (maybe fixed) : 0
Atom jitter error (maybe fixed) : 0
Drift error (maybe fixed) : 0
Dropped bytes error (maybe fixed) : 0
Duplicated bytes error (maybe fixed) : 0
Inconsistency in error sectors : 0

Track 02
CRC32 hash (test run) : 97572977
CRC32 hash : 97572977
CRC32 hash (skip zero) : 5CFB5EB8
AccurateRip signature : 54B9CE7C
->Track not present in AccurateRip database.
Statistics
Read error : 0
Skipped (treated as error) : 0
Edge jitter error (maybe fixed) : 0
Atom jitter error (maybe fixed) : 0
Drift error (maybe fixed) : 0
Dropped bytes error (maybe fixed) : 0
Duplicated bytes error (maybe fixed) : 0
Inconsistency in error sectors : 0

Track 03
CRC32 hash (test run) : 14CC1F0B
CRC32 hash : 14CC1F0B
CRC32 hash (skip zero) : 1F8E8B53
AccurateRip signature : EFA2100C
->Track not present in AccurateRip database.
Statistics
Read error : 0
Skipped (treated as error) : 0
Edge jitter error (maybe fixed) : 0
Atom jitter error (maybe fixed) : 0
Drift error (maybe fixed) : 0
Dropped bytes error (maybe fixed) : 0
Duplicated bytes error (maybe fixed) : 0
Inconsistency in error sectors : 0

Track 04
CRC32 hash (test run) : 35161DE3
CRC32 hash : 35161DE3
CRC32 hash (skip zero) : 8FBBEF9F
AccurateRip signature : F02379EC
->Track not present in AccurateRip database.
Statistics
Read error : 0
Skipped (treated as error) : 0
Edge jitter error (maybe fixed) : 0
Atom jitter error (maybe fixed) : 0
Drift error (maybe fixed) : 0
Dropped bytes error (maybe fixed) : 0
Duplicated bytes error (maybe fixed) : 0
Inconsistency in error sectors : 0

No errors occurred

End of status report
Сказочник – Е.Перов
Герда – Г.Новожилова
Кей - В.Сперантова
Снежная Королева – К.Коренева
Бабушка – А.Соболева
Советник – М.Нейман
Принц – Л.Чернышева
Принцесса – Г.Иванова
Атаманша – Т.Струкова
Маленькая разбойница – А.Кудрявцева
Олень – В.Харлашин
Ворон – П.Чинаров
Ворона – Н.Терновская
Музыка В. Оранского
Постановка О.Пыжовой и Б.Бибикова
Оркестр Центрального Детского театра, п/у А.Фролова
Перепись 1969 г.

CCBot - Лучшая благодарность поделиться ссылкой с друзьями в соц. сетях

Постеры

Соцсети

 

Статистика

Автор: Nik
Добавлен: 20 мар 2014, 00:06
Размер: 318.95 МБ
Размер: 334 446 780 байт
Сидеров: 6
Личеров: 0
Скачали: 0
Здоровье: 100%
Раздающих: 100%
Скорость скачивания: 0 байт/сек
Скорость раздачи: 0 байт/сек
Последний сидер: 2 года 4 месяца 8 дней 4 часа 2 минуты 32 секунды назад
Последний личер: Нет
Приватный: Нет (DHT включён)
Скачать торрент
Скачать торрент
[ Размер 13.24 КБ / Просмотров 3 ]

Поделиться



Вернуться в Аудио и радиоспектакли