Wikisound.org | Полное изучение синтезатора FM8 (2013) [PCRec]

Видео уроки, книги, учебники по созданию музыки, работа с звуковыми редакторами
Торрент Сидеров Личеров Размер
torrent_652446.torrent
18 6 1004.7 МБ
Аватара пользователя
Таточка
Сообщения: 13173
Зарегистрирован: 08 янв 2012, 19:02

Wikisound.org | Полное изучение синтезатора FM8 (2013) [PCRec]

Сообщение Таточка » 21 апр 2014, 19:06

Автор (режиссер): Wikisound.org
Жанр: Звукорежиссура
Язык: Русский
Продолжительность: 05:35:05
Качество видео: PCRec
Видеокодек: AVC/H.264
Битрейт видео: 209 Кбит/сек (CBR), 15,000 кадров/сек
Размер кадра: 1280x720, 16:9
Аудиокодек: AAC
Битрейт аудио: 192 Кбит/сек (VBR), 2 канала, 44,1 КГц

Описание: ЧТО ДАСТ ВАМ КУРС ПО СИНТЕЗАТОРУ FM8?
• Ясность и понимание параметров синтезатора, в курсе наглядно показано как работают и на что влият все ручки и кнопки.
• В вашей власти окажется мощнейший инструмент по созданию звуков, что позволит реализовать ваш потенциал в максимальной степени.
• Теперь, садясь писать музыку вы не будите крутить наугад и гадать на что влияет определённый параметр.
• Посмотрев данный курс вы получите понимание инструмента с помощью которого вы сможете реализовать свой творческий потенциал в макимальной степени. Таким образом ваша музыка начнёт выделятся среди общей массы музыкантов.
• Верное и последовательное понимание всех функции синтезатора, они объяснены подробно и наглядно.
• Вам откроются ранее неизвестные возможности синтеза — это 100% даст новый творческий толчок.
Основной курс
01 Краткий обзор основных функций
02 Страницы операторов A-E
03 Страницы операторов A-E огибающая
04 Матрица
05 Что такое FM синтез
06 Окно оператора X
07 Окно оператора Z
08 Окно операторов
09 Окно огибающих
10 Окно модуляций
11 Окно масштабирования клавиш
12 Окно высоты тона
13 Окно спектра
14 Окно эффектов
15 Эффекты искажений (Overdrive, Tube Amp)
16 Эффект Cabinet
17 Эффекты эквалайзеры
18 Эффект Talk Wah
19 Эффект Phaser
20 Эффект Flanger
21 Эффект Tremolo
22 Эффект Reverb
23 Эффект PsycheDelay
24 Эффект Chorus.Delay
25 Страница Arpeggiator
26 Страница Master
27 Страница Easy-Morph глобальные параметры
28 Страница Easy-Morph график морфинга
29 Использование браузера
30 Сохранение пресетов
31 Панель управления синтезатором
32 Настройки синтезатора
33 Как операторам настроить смещение фазы
34 Использование FM8 в качестве эффекта

Бонус
01 Рецепты FM синтеза
02 Синтез кислоты
03 Синтез лидов
04 Синтез говорящего баса
05 Как синтезировать широкие звуки
General
Complete name :D:\Сведение\Wikisound.org - FM8\01 Руководство по синтезатору\01 Краткий обзор основных функций.mp4
Format : MPEG-4
Format profile : Base Media / Version 2
Codec ID : mp42
File size : 11.2 MiB
Duration : 3mn 53s
Overall bit rate mode : Variable
Overall bit rate : 403 Kbps
Encoded date : UTC 2013-11-08 18:06:33
Tagged date : UTC 2013-11-08 18:06:33
©TIM : 00:00:00:00
©TSC : 15
©TSZ : 1

Video
ID : 1
Format : AVC
Format/Info : Advanced Video Codec
Format profile :
Format settings, CABAC : Yes
Format settings, ReFrames : 3 frames
Codec ID : avc1
Codec ID/Info : Advanced Video Coding
Duration : 3mn 53s
Source duration : 3mn 53s
Bit rate mode : Constant
Bit rate : 209 Kbps
Nominal bit rate : 350 Kbps
Width : 1 280 pixels
Height : 720 pixels
Display aspect ratio : 16:9
Frame rate mode : Variable
Frame rate : 15.000 fps
Minimum frame rate : 15.000 fps
Maximum frame rate : 15.008 fps
Standard : NTSC
Color space : YUV
Chroma subsampling : 4:2:0
Bit depth : 8 bits
Scan type : Progressive
Bits/(Pixel*Frame) : 0.015
Stream size : 5.80 MiB (52%)
Source stream size : 5.80 MiB (52%)
Language : English
Encoded date : UTC 2013-11-08 18:06:33
Tagged date : UTC 2013-11-08 18:06:33
mdhd_Duration : 233200
Color primaries : BT.709
Transfer characteristics : BT.709
Matrix coefficients : BT.709

Audio
ID : 2
Format : AAC
Format/Info : Advanced Audio Codec
Format profile : LC
Codec ID : 40
Duration : 3mn 53s
Source duration : 3mn 53s
Bit rate mode : Variable
Bit rate : 192 Kbps
Maximum bit rate : 257 Kbps
Channel(s) : 2 channels
Channel positions : Front: L R
Sampling rate : 44.1 KHz
Compression mode : Lossy
Stream size : 5.27 MiB (47%)
Source stream size : 5.27 MiB (47%)
Language : English
Encoded date : UTC 2013-11-08 18:06:33
Tagged date : UTC 2013-11-08 18:06:33
mdhd_Duration : 233291
Скриншоты:
У вас нет необходимых прав для просмотра вложений в этом сообщении.