Автошкола: Курс для начинающих водителей (2009) DVD5

Обучающие материалы по ремонту и эксплуатации
Торрент Сидеров Личеров Размер
torrent_392609.torrent
9 2 2.95 ГБ
Аватара пользователя
Nik
Сообщения: 25929
Зарегистрирован: 05 ноя 2011, 22:02

Автошкола: Курс для начинающих водителей (2009) DVD5

Сообщение Nik » 21 апр 2014, 19:21

Автошкола: Курс для начинающих водителей (2009) DVD5

Название: Автошкола: Курс для начинающих водителей
Страна: Россия
Год выпуска: 2009
Жанр: Обучающее видео

Описание:
Специальный курс, предназначенный для новичков в деле вождения, в котором освещены все аспекты безопасного поведения на дороге - от самых основных моментов, до нюансов, знакомых только опытным инструкторам. Пройдя обучение в автошколе, сдав экзамены и получив права, новоиспеченный водитель остается один на один со своими проблемами. Ведь твердых навыков вождения автомобиля еще нет, а дорожная обстановка, равно как и другие участники дорожного движения не хотят принимать во внимание отсутствие опыта.

Чтобы процесс эволюции от "неумелого чайника", до умелого водителя прошел как можно больше безболезненно, чтобы начинающий водитель не оставался со своим проблемами один на один, мы предлагаем программу для закрепления начальных водительских навыков, которая так и называется "Автошкола: Курс для начинающих водителей".

Ведущий: Александр Гусаров
Продолжительность: 00:44:00

Качество видео: DVD-5
Формат: DVD-Video
Видео: PAL 4:3 (720x576) VBR, 8000 Кбит/сек
Аудио: PCM, 2 ch, 1536 Кбит/с
Код:

Код: Выделить всё

Общее
Полное имя                       : F:\Раздачи\Автошкола Курс для начинающих водителей (2009) DVD5\VIDEO_TS\VTS_01_1.VOB
Формат                           : MPEG-PS
Размер файла                     : 1024 Мбайт
Продолжительность                : 14 м.
Режим общего битрейта            : Переменный
Общий поток                      : 9761 Кбит/сек

Видео
Идентификатор                    : 224 (0xE0)
Формат                           : MPEG Video
Версия формата                   : Version 2
Профиль формата                  : Main@Main
Параметр BVOP формата            : Да
Параметр матрицы формата         : По умолчанию
Параметр GOP формата             : M=3, N=12
Продолжительность                : 14 м.
Вид битрейта                     : Переменный
Битрейт                          : 8000 Кбит/сек
Ширина                           : 720 пикселей
Высота                           : 576 пикселей
Соотношение сторон               : 4:3
Частота кадров                   : 25,000 кадров/сек
Стандарт вещания                 : PAL
Цветовое пространство            : YUV
Субдискретизация насыщенности    : 4:2:0
Битовая глубина                  : 8 бит
Тип развёртки                    : Чересстрочная
Порядок развёртки                : Верхнее поле первое
Метод сжатия                     : С потерями
Бит/(Пиксели*Кадры)              : 0.772
Размер потока                    : 842 Мбайт (82%)

Аудио
Идентификатор                    : 189 (0xBD)-160 (0xA0)
Формат                           : PCM
Параметр Endianness формата      : Big
Параметр Sign формата            : Signed
Режим смешивания                 : DVD-Video
Продолжительность                : 14 м.
Вид битрейта                     : Постоянный
Битрейт                          : 1536 Кбит/сек
Каналы                           : 2 канала
Расположение каналов             : Front: L R
Частота                          : 48,0 КГц
Битовая глубина                  : 16 бит
Размер потока                    : 161 Мбайт (16%)

Меню
Скриншоты:

Время раздачи: 9.00 - 23.00 (по мере возможности...)
У вас нет необходимых прав для просмотра вложений в этом сообщении.

TOPIC_VIEWER - Лучшая благодарность поделиться ссылкой с друзьями в соц. сетях