Видео


Сообщение

Видео Алексей Меркулов | 3D моделирование в AUTOCAD, Визуализация в 3DS MAX, Анимация в LUMION (2014) PCRec

Сообщение Stepan » 24 окт 2015, 00:21

Алексей Меркулов | 3D моделирование в AUTOCAD, Визуализация в 3DS MAX, Анимация в LUMION (2014) PCRec

Автор (режиссер): Алексей Меркулов
Жанр: 3D моделирование, визуализация
Продолжительность: 16:12:34
Качество видео: PCRec
Видеокодек: AVC
Битрейт видео: 1657 kbps
Размер кадра: 1920x1080
Аудиокодек: AAC 2.0
Битрейт аудио: 192 kbps (CBR), 2 Ch, 44100 Hz

Описание:
1. МОДЕЛИНГ В AUTOCAD
2. 3DS MAX + V-RAY
3. ЭКСТЕРЬЕРНАЯ ВИЗУАЛИЗАЦИЯ
4. ПОСТОБРАБОТКА В PHOTOSHOP
5. АНИМАЦИЯ В LUMION
Общее
Полное имя : F:\МЕРКУЛОВ\Content\lessons\2.Razdel_3DMax_Vray\6. Проемы и окна.mp4
Формат : MPEG-4
Профиль формата : Base Media / Version 2
Идентификатор кодека : mp42
Размер файла : 152 Мбайт
Продолжительность : 11 м.
Режим общего битрейта : Переменный
Общий поток : 1849 Кбит/сек
Название фильма : Untitled
Дата кодирования : UTC 2014-02-19 19:57:56
Дата пометки : UTC 2014-02-19 19:57:56

Видео
Идентификатор : 1
Формат : AVC
Формат/Информация : Advanced Video Codec
Профиль формата :
Параметр CABAC формата : Да
Параметр ReFrames формата : 3 кадра
Идентификатор кодека : avc1
Идентификатор кодека/Информация : Advanced Video Coding
Продолжительность : 11 м.
Продолжительность оригинала : 11 м.
Битрейт : 1657 Кбит/сек
Ширина : 1920 пикселей
Высота : 1080 пикселей
Соотношение сторон : 16:9
Режим частоты кадров : Переменный
Частота кадров : 30,000 кадров/сек
Минимальная частота кадров : 30,000 кадров/сек
Максимальная частота кадров : 30,030 кадров/сек
Стандарт вещания : NTSC
Цветовое пространство : YUV
Субдискретизация насыщенности : 4:2:0
Битовая глубина : 8 бит
Тип развёртки : Прогрессивная
Бит/(Пиксели*Кадры) : 0.027
Размер потока : 136 Мбайт (90%)
Размер потока оригинала : 136 Мбайт (90%)
Язык : English
Дата кодирования : UTC 2014-02-19 19:57:57
Дата пометки : UTC 2014-02-19 19:57:57
Основные цвета : BT.709
Характеристики трансфера : BT.709
Коэффициенты матрицы : BT.709
colour_range : Limited
mdhd_Duration : 690200

Аудио
Идентификатор : 2
Формат : AAC
Формат/Информация : Advanced Audio Codec
Профиль формата : LC
Идентификатор кодека : 40
Продолжительность : 11 м.
Продолжительность оригинала : 11 м.
Вид битрейта : Переменный
Битрейт : 192 Кбит/сек
Максимальный битрейт : 295 Кбит/сек
Каналы : 2 канала
Расположение каналов : Front: L R
Частота : 44,1 КГц
Метод сжатия : С потерями
Размер потока : 15,6 Мбайт (10%)
Размер потока оригинала : 15,6 Мбайт (10%)
Язык : English
Дата кодирования : UTC 2014-02-19 19:57:57
Дата пометки : UTC 2014-02-19 19:57:57
mdhd_Duration : 690236

Скриншоты:



Время раздачи: до 4 утра.

Постеры

Соцсети

 

Статистика

Автор: Stepan
Добавлен: 24 окт 2015, 00:21
Размер: 16.75 ГБ
Размер: 17 984 550 746 байт
Сидеров: 643
Личеров: 58
Скачали: 28
Здоровье: 100%
Раздающих: 100%
Скорость скачивания: 0 байт/сек
Скорость раздачи: 0 байт/сек
Последний сидер: 4 дня 11 часов 14 минут 34 секунды назад
Последний личер: 4 дня 11 часов 14 минут 34 секунды назад
Приватный: Нет (DHT включён)
Скачать торрент
Скачать торрент
[ Размер 62.09 КБ / Просмотров 134 ]

Поделиться


Re: Алексей Меркулов | 3D моделирование в AUTOCAD, Визуализация в 3DS MAX, Анимация в LUMION (2014) PCRec

Сообщение Vanya82 » 02 авг 2018, 13:21

Есть видеокурсы Алексея Меркулова:

Моделирование. Визуализация. Постобработка
https://autocad-specialist.ru/kurs-3ds-max-exterior/
Конструкции железобетонные в Revit
https://autocad-specialist.ru/kurs-konstruktiv-v-revit/
Блоки и поля в AutoCAD
https://autocad-specialist.ru/kurs-blok ... a-autocad/
AutoCAD. Советы и хитрости
https://autocad-specialist.ru/kurs-tips-tricks-autocad/
3D моделирование в AutoCAD
https://autocad-specialist.ru/kurs-3d-m ... e-autocad/
Концептуальное моделирование в Revit
https://autocad-specialist.ru/kurs-revi ... lirovanie/

Кому интересно пишите на почту: realolya_84@bigmir.net
Аватара пользователя
Vanya82
 



  • Похожие торренты
    Ответы
    Просмотры
    Последнее сообщение

Вернуться в 3D-графика