Екатерина Федорова | Игра на волшебной флейте [Полный комплект] (2013) CamRip [H.264]

Видео уроки, книги, учебники, курсы IT по компьютерным технологиям
Торрент Сидеров Личеров Размер
torrent_711026.torrent
18 6 2.34 ГБ
Аватара пользователя
Stepan
Администратор
Сообщения: 52388
Зарегистрирован: 05 ноя 2011, 20:36

Екатерина Федорова | Игра на волшебной флейте [Полный комплект] (2013) CamRip [H.264]

Сообщение Stepan » 06 дек 2015, 14:45

Екатерина Федорова | Игра на волшебной флейте [Полный комплект] (2013) CamRip [H.264]

Автор (режиссер): Екатерина Федорова
Жанр: Обучающий курс
Продолжительность: 04:02:58
Качество видео: CamRip
Видеокодек: AVC
Битрейт видео: ~25fps 900kbps
Размер кадра: 720x400
Аудиокодек: AAC
Битрейт аудио: 48000Hz stereo 128kbps
Доп. материалы: Имеются

Описание:
Уникальная авторская методика, позволяющая каждой женщине стать королевой сексуальных отношений - именно такой, которую ищут и о которой мечтают все мужчины. Техника волшебная флейта – это не просто хаотические движения, которые умеет делать каждая женщина.

От автора:
"В нас сконцентрирована вся энергия жизни. С помощью сексуальности мы можем управлять миром мужчин и получать от жизни все, что хотим. Но многие женщины проживают всю жизнь, так и не раскрыв свой потенциал, а сексуальностью, как и любым оружием, нужно научиться пользоваться.
Поверьте, это несложно. Я обучаю женщин «Искусству любовных отношений» уже восемь лет и я вижу, как мои ученицы обретают сексуальную гармонию и уверенность в себе, как они строят счастливые отношения и как мужчины бросают все к их ногам."

Программа «волшебная флейта» специально разработана для современной женщины, которая хочет быть лучшей не только в профессиональной деятельности, но для которой чрезвычайно важно быть любимой и единственной для своего мужчины.

Что получают женщины, прошедшие обучение
новые сексуальные возможности, развитие сексуальной интуиции
умение всегда получать максимальное удовольствие от секса
возможность доводить партнера до высшей степени блаженства
восхищение мужчин
верность любимого

Кому это нужно?
тем, кто в браке больше 5 лет;
тем, кто еще только ищет свою вторую половинку;
тем, кто не боится раскрыть свою женскую силу и энергию;
тем, для кого важно достичь гармонии в интимной жизни;тем, кто хочет быть всегда желанной и любимой

В комплекте:

Книги:
Уникальная практическая книга об оральном сексе с авторскими приемами "Игра на волшебной флейте" в формате PDF

Аудиокниги:
Игра на волшебной флейте
Сказки для тысячи и одной ночи
Тренировка сексуального голос

Видеокурсы:
Массаж члена «Вода»
Массаж члена «Земля»
Оральный секс
Массаж простаты
Массаж члена «Огонь»
Массаж члена «Воздух»
Древние приемы интимного массажа от гейш
«Глубокое горло» легко
Позы в постели
Приватный танец
Эротическая пластика
Эротический массаж телом
Общее
Полное имя : D:\Торренты\Игра на волшебной флейте [Полный комплект]\Видео\ИЛО-1-1. Массаж члена «Вода».mp4
Формат : MPEG-4
Профиль формата : Base Media / Version 2
Идентификатор кодека : mp42
Размер файла : 150 Мбайт
Продолжительность : 20 м.
Режим общего битрейта : Переменный
Общий поток : 1034 Кбит/сек

Видео
Идентификатор : 1
Формат : AVC
Формат/Информация : Advanced Video Codec
Профиль формата :
Параметр CABAC формата : Да
Параметр ReFrames формата : 4 кадра
Идентификатор кодека : avc1
Идентификатор кодека/Информация : Advanced Video Coding
Продолжительность : 20 м.
Продолжительность оригинала : 20 м.
Битрейт : 900 Кбит/сек
Ширина : 720 пикселей
Высота : 400 пикселей
Соотношение сторон : 16:9
Режим частоты кадров : Постоянный
Частота кадров : 25,000 кадров/сек
Цветовое пространство : YUV
Субдискретизация насыщенности : 4:2:0
Битовая глубина : 8 бит
Тип развёртки : Прогрессивная
Бит/(Пиксели*Кадры) : 0.125
Размер потока : 130 Мбайт (87%)
Размер потока оригинала : 130 Мбайт (87%)
Библиотека кодирования : x264 core 125 r2200 999b753
Настройки программы : cabac=1 / ref=1 / deblock=1:-1:-1 / analyse=0x3:0x113 / me=hex / subme=2 / psy=1 / psy_rd=1.00:0.10 / mixed_ref=0 / me_range=16 / chroma_me=1 / trellis=0 / 8x8dct=1 / cqm=0 / deadzone=21,11 / fast_pskip=1 / chroma_qp_offset=0 / threads=6 / lookahead_threads=1 / sliced_threads=0 / nr=0 / decimate=1 / interlaced=0 / bluray_compat=0 / constrained_intra=0 / bframes=3 / b_pyramid=2 / b_adapt=1 / b_bias=0 / direct=1 / weightb=1 / open_gop=0 / weightp=1 / keyint=250 / keyint_min=25 / scenecut=40 / intra_refresh=0 / rc_lookahead=10 / rc=2pass / mbtree=1 / bitrate=900 / ratetol=1.0 / qcomp=0.60 / qpmin=0 / qpmax=69 / qpstep=4 / cplxblur=20.0 / qblur=0.5 / ip_ratio=1.40 / aq=1:1.00
Язык : English
mdhd_Duration : 1214280

Аудио
Идентификатор : 2
Формат : AAC
Формат/Информация : Advanced Audio Codec
Профиль формата : LC
Идентификатор кодека : 40
Продолжительность : 20 м.
Вид битрейта : Переменный
Битрейт : 128 Кбит/сек
Каналы : 2 канала
Расположение каналов : Front: L R
Частота : 48,0 КГц
Метод сжатия : С потерями
Размер потока : 18,5 Мбайт (12%)
Язык : English
Скриншоты:
Время раздачи: 24/7 (круглосуточно)
У вас нет необходимых прав для просмотра вложений в этом сообщении.

Аватара пользователя
uvansyk
Сообщения: 1
Зарегистрирован: 15 мар 2019, 21:42

Re: Екатерина Федорова | Игра на волшебной флейте [Полный комплект] (2013) CamRip [H.264]

Сообщение uvansyk » 15 мар 2019, 21:44

Как скачать ?