Ягодкин Николай | Стань гением (2015) HDRip [H.264]

Видео уроки, книги, учебники, курсы IT по компьютерным технологиям
Торрент Сидеров Личеров Размер
torrent_801790.torrent
8 3 17.27 ГБ
Аватара пользователя
Stepan
Администратор
Сообщения: 52267
Зарегистрирован: 05 ноя 2011, 20:36

Ягодкин Николай | Стань гением (2015) HDRip [H.264]

Сообщение Stepan » 06 дек 2015, 14:52

Ягодкин Николай | Стань гением (2015) HDRip [H.264]

Автор (режиссер): Ягодкин Николай (Advance club)
Жанр: Саморазвитие, память, обучение

Описание:
Авторский курс Николая Ягодкина по развитию навыков запоминания, самообучения и работы с большими объемами информации.

Содержание:
1. БОНУС - Вводный вебинар по технологиям
2. Развитие памяти и внимания
3. Технологии обучения и работы с информацией

Продолжительность: 33:02:65
Качество видео: HDRip

Видео: AVC/H.264, 1280х720, 1048х578, 720х400, 788х578, ~673 Kbps
Аудио: AAC, 2 ch, 160 Kbps, VBR
Код:

Код: Выделить всё

General
Complete name                            : C:\Torrents\Ягодкин Николай - Стань гением (2015) HD\2. Развитие памяти и внимания\Стань гением 18.04.2015 (часть 2).mp4
Format                                   : MPEG-4
Format profile                           : Base Media / Version 2
Codec ID                                 : mp42
File size                                : 1.11 GiB
Duration                                 : 3h 9mn
Overall bit rate mode                    : Variable
Overall bit rate                         : 837 Kbps
Encoded date                             : UTC 2015-04-22 14:43:30
Tagged date                              : UTC 2015-04-22 14:43:30

Video
ID                                       : 1
Format                                   : AVC
Format/Info                              : Advanced Video Codec
Format profile                           : 
Format settings, CABAC                   : Yes
Format settings, ReFrames                : 4 frames
Codec ID                                 : avc1
Codec ID/Info                            : Advanced Video Coding
Duration                                 : 3h 9mn
Bit rate                                 : 673 Kbps
Width                                    : 788 pixels
Height                                   : 578 pixels
Display aspect ratio                     : 4:3
Frame rate mode                          : Constant
Frame rate                               : 25.000 fps
Color space                              : YUV
Chroma subsampling                       : 4:2:0
Bit depth                                : 8 bits
Scan type                                : Progressive
Bits/(Pixel*Frame)                       : 0.059
Stream size                              : 912 MiB (80%)
Writing library                          : x264 core 146 r16 121396c
Encoding settings                        : cabac=1 / ref=3 / deblock=1:0:0 / analyse=0x3:0x113 / me=hex / subme=7 / psy=1 / psy_rd=1.00:0.00 / mixed_ref=1 / me_range=16 / chroma_me=1 / trellis=1 / 8x8dct=1 / cqm=0 / deadzone=21,11 / fast_pskip=1 / chroma_qp_offset=-2 / threads=48 / lookahead_threads=4 / sliced_threads=0 / nr=0 / decimate=1 / interlaced=0 / bluray_compat=0 / stitchable=1 / constrained_intra=0 / bframes=3 / b_pyramid=2 / b_adapt=1 / b_bias=0 / direct=1 / weightb=1 / open_gop=0 / weightp=2 / keyint=infinite / keyint_min=25 / scenecut=40 / intra_refresh=0 / rc_lookahead=40 / rc=crf / mbtree=1 / crf=20.0 / qcomp=0.60 / qpmin=5 / qpmax=69 / qpstep=4 / vbv_maxrate=2750 / vbv_bufsize=7500 / crf_max=0.0 / nal_hrd=none / filler=0 / ip_ratio=1.40 / aq=1:1.00
Encoded date                             : UTC 2015-04-22 14:43:30
Tagged date                              : UTC 2015-04-22 14:43:30
Color primaries                          : BT.709
Transfer characteristics                 : BT.709
Matrix coefficients                      : BT.709

Audio
ID                                       : 2
Format                                   : AAC
Format/Info                              : Advanced Audio Codec
Format profile                           : LC
Codec ID                                 : 40
Duration                                 : 3h 9mn
Bit rate mode                            : Variable
Bit rate                                 : 160 Kbps
Channel(s)                               : 2 channels
Channel positions                        : Front: L R
Sampling rate                            : 48.0 KHz
Compression mode                         : Lossy
Stream size                              : 217 MiB (19%)
Encoded date                             : UTC 2015-04-22 14:43:30
Tagged date                              : UTC 2015-04-22 14:43:30
ГАРАНТИРОВАННЫЙ РЕЗУЛЬТАТ.
Всего за 4 дня, Вы гарантировано удвоите скорость и эффективность:
- Любого обучения и запоминания
- Изучения иностранного языка
- Обработки больших объемов информации
- Написания статей, книг,отчетов
- Работы с любой документацией и информацией

Вы получите универсальные навыки, которые применимы на 80-90%
Вашей работы и обучения!
Вы не только научитесь работать и учиться эффективнее и проще,
но и минимум в 2 раза сократите затрачиваемое на эти задачи время!

РЕЗУЛЬТАТ НАВСЕГДА
Вы получите навыки, которые останутся с Вами навсегда. Один раз научившись кататься на велосипеде, даже через 10 лет Вы сядете на него и поедете.

А эти навыки Вы будете использовать каждый день: на учебе, при чтении книг, переписке, планировании дня, что постоянно будет увеличивать эффективность их применения.

ОСВОИВ ТЕХНОЛОГИИ, ВЫ СМОЖЕТЕ:
-Вместо 2-3 лет свободно заговорить на иностранном языке за 3-6 месяцев
-За неделю подготовиться и сдать сессию на отлично, а ВУЗ закончить экстерном за год.
-Подготовиться к экзамену за вечер, если раньше потратили бы на это 2-3 дня
-За 2-4 часа работы с информацией сделать больше, чем за 8-часовой рабочий день
Скриншоты:


Время раздачи: По мере возможности
У вас нет необходимых прав для просмотра вложений в этом сообщении.

Аватара пользователя
Maryasha
Сообщения: 1
Зарегистрирован: 24 апр 2019, 08:15

Re: Ягодкин Николай | Стань гением (2015) HDRip [H.264]

Сообщение Maryasha » 24 апр 2019, 08:44

Доброе утро! У вас я нашла то,что мне нужно.Я новичок в этом деле. Как мне скачать эту информацию? Заранее спасибо!