Никита Феофанов и Азат Валеев | Массовые продажи физических товаров 3 (Бизнес - версия) (2014) [PCRec]

Открытие, развитие и стратегия введения бизнеса.
Торрент Сидеров Личеров Размер
torrent_689305.torrent
3 3 1.31 ГБ
Аватара пользователя
Stepan
Администратор
Сообщения: 52267
Зарегистрирован: 05 ноя 2011, 20:36

Никита Феофанов и Азат Валеев | Массовые продажи физических товаров 3 (Бизнес - версия) (2014) [PCRec]

Сообщение Stepan » 02 сен 2017, 12:08

Никита Феофанов и Азат Валеев | Массовые продажи физических товаров 3 (Бизнес - версия) (2014) [PCRec]

Автор (режиссер): Никита Феофанов и Азат Валеев
Жанр: Бизнес
Продолжительность: 17:08:24
Качество видео: PCRec
Видеокодек: AVC
Битрейт видео: ~15fps 52kbps
Размер кадра: 1366x768
Аудиокодек: AAC
Битрейт аудио: 44100Hz stereo 45kbps
Доп. материалы: Имеются

Описание:
Обновлённый тренинг от Никиты Феофанова и Азата Валеева по продаже товаров
через одностраничные сайты...
Общее
Полное имя : D:\Андрей\МП3 Бизнес\МП3 Бизнес\МП3 Бизнес День 1.mp4
Формат : MPEG-4
Профиль формата : Base Media
Идентификатор кодека : isom
Размер файла : 32,8 Мбайт
Продолжительность : 43 м.
Общий поток : 104 Кбит/сек
Исполнитель : "implix recorder"
Программа кодирования : Lavf54.29.104

Видео
Идентификатор : 1
Формат : AVC
Формат/Информация : Advanced Video Codec
Профиль формата :
Параметр CABAC формата : Да
Параметр ReFrames формата : 4 кадра
Идентификатор кодека : avc1
Идентификатор кодека/Информация : Advanced Video Coding
Продолжительность : 43 м.
Битрейт : 52,4 Кбит/сек
Ширина : 1366 пикселей
Высота : 768 пикселей
Соотношение сторон : 16:9
Режим частоты кадров : Постоянный
Частота кадров : 15,000 кадров/сек
Цветовое пространство : YUV
Субдискретизация насыщенности : 4:2:0
Битовая глубина : 8 бит
Тип развёртки : Прогрессивная
Бит/(Пиксели*Кадры) : 0.003
Размер потока : 16,5 Мбайт (50%)
Библиотека кодирования : x264 core 132
Настройки программы : cabac=1 / ref=1 / deblock=1:0:0 / analyse=0x1:0x111 / me=hex / subme=2 / psy=1 / psy_rd=1.00:0.00 / mixed_ref=0 / me_range=16 / chroma_me=1 / trellis=0 / 8x8dct=0 / cqm=0 / deadzone=21,11 / fast_pskip=1 / chroma_qp_offset=0 / threads=4 / lookahead_threads=1 / sliced_threads=0 / nr=0 / decimate=1 / interlaced=0 / bluray_compat=0 / constrained_intra=0 / bframes=3 / b_pyramid=2 / b_adapt=1 / b_bias=0 / direct=1 / weightb=1 / open_gop=0 / weightp=1 / keyint=250 / keyint_min=15 / scenecut=40 / intra_refresh=0 / rc_lookahead=10 / rc=crf / mbtree=1 / crf=26.0 / qcomp=0.60 / qpmin=0 / qpmax=69 / qpstep=4 / ip_ratio=1.40 / aq=1:1.00

Аудио
Идентификатор : 2
Формат : AAC
Формат/Информация : Advanced Audio Codec
Профиль формата : LC
Идентификатор кодека : 40
Продолжительность : 43 м.
Вид битрейта : Постоянный
Битрейт : 45,3 Кбит/сек
Каналы : 2 канала
Расположение каналов : Front: L R
Частота : 44,1 КГц
Метод сжатия : С потерями
Задержка видео : 133 мс.
Размер потока : 14,2 Мбайт (43%)
Скриншоты:


Время раздачи: 24/7 (круглосуточно)
У вас нет необходимых прав для просмотра вложений в этом сообщении.


Тема поднималась пользователем Stepan 02 сен 2017, 12:08.