Видео


Сообщение

Видео Специалист | Защита веб-сайтов от взлома (2014) PCRec

Сообщение Nik » 15 авг 2016, 01:23

Специалист | Защита веб-сайтов от взлома (2014) PCRec

Автор (режиссер): Клевогин Сергей Павлович
Жанр: SQL, Apache

Описание:
ОПИСАНИЕ КУРСА:

На семинаре будет рассказано об архитектуре веб-сервера IIS и Apache, о том, как конфигурация сервера может повышать или понижать безопасность веб-сайтов, а также об XSS-атаках на сайты и SQL-инъекциях.

Цель семинара – получить знания и навыки, необходимые для успешной защиты веб-сайтов от хакерских атак. Семинар посвящен способам укрепления веб-серверов и веб-сайтов.

ЦЕЛЕВАЯ АУДИТОРИЯ ДАННОГО СЕМИНАРА:

Cистемные администраторы безопасности, инженеры и аудиторы, работающие или предполагающие работать на средних и крупных предприятиях, вплоть до организаций корпоративного масштаба.
К основной целевой аудитории данного семинара также относятся квалифицированные специалисты в области информационных технологий, включая администраторов предприятий, желающих улучшить свои знания и навыки в области безопасности веб-сайтов.
Кроме того, к дополнительной целевой аудитории также относятся квалифицированные специалисты, желающие понять суть и методы защиты веб-сайтов.

Продолжительность: 04:14:48
Качество видео: PCRec

Видео: AVC/H.264, 1280x1024, ~128 Kbps
Аудио: AAC, 2 ch, 56 Kbps
Модуль 1. Архитектура, конфигурирование и создание сайтов IIS
Архитектура IIS
Основы безопасности веб сервера
Создание сайтов на IIS
Основы безопасности веб сайтов

Модуль 2. Архитектура, конфигурирование и создание сайтов Apache
Архитектура Apache
Создание сайтов на Apache

Модуль 3. Типы атак на веб-сайты
Атаки на аутентификацию
Атаки на авторизацию
Атаки на клиентов
Выполнение кода
Раскрытие информации
Логические атаки

Модуль 4. Принцип XSS-атак
Отраженные XSS
Сохраненные XSS
Защита от XSS-атак

Модуль 5. Принцип SQL-инъекций
Обход аутентификации с помощью SQL-инъекций
Извлечение данных с помощью SQL-инъекций
Изменение данных с помощью SQL-инъекций
Защита от SQL-инъекций
Код:
Код: Выделить всё
Общее
Полное имя                               : C:\torrent\Zashhita veb-sajtov ot vzloma - 2014\Защита веб-сайтов от взлома - 2014.mp4
Формат                                   : MPEG-4
Профиль формата                          : Base Media
Идентификатор кодека                     : isom (isom/avc1/iso6)
Размер файла                             : 340 Мбайт
Продолжительность                        : 4 ч. 14 м.
Режим общего битрейта                    : Переменный
Общий поток                              : 187 Кбит/сек
Дата кодирования                         : UTC 2015-12-29 11:27:03
Дата пометки                             : UTC 2015-12-29 11:27:03

Видео
Идентификатор                            : 1
Формат                                   : AVC
Формат/Информация                        : Advanced Video Codec
Профиль формата                          :
Параметр CABAC формата                   : Да
Параметр ReFrames формата                : 8 кадров
Идентификатор кодека                     : avc1
Идентификатор кодека/Информация          : Advanced Video Coding
Продолжительность                        : 4 ч. 14 м.
Битрейт                                  : 128 Кбит/сек
Максимальный битрейт                     : 4143 Кбит/сек
Ширина                                   : 1280 пикселей
Высота                                   : 1024 пикселя
Соотношение сторон                       : 5:4
Режим частоты кадров                     : Постоянный
Частота кадров                           : 10,000 кадров/сек
Цветовое пространство                    : YUV
Субдискретизация насыщенности            : 4:2:0
Битовая глубина                          : 8 бит
Тип развёртки                            : Прогрессивная
Бит/(Пиксели*Кадры)                      : 0.010
Размер потока                            : 233 Мбайт (69%)
Заголовок                                : -DEV-rev248-g39d5978-master
Библиотека кодирования                   : x264 core 146 r2538 121396c
Настройки программы                      : cabac=1 / ref=8 / deblock=1:-1:-1 / analyse=0x3:0x113 / me=umh / subme=7 / psy=1 / psy_rd=1.00:0.20 / mixed_ref=1 / me_range=16 / chroma_me=1 / trellis=2 / 8x8dct=1 / cqm=0 / deadzone=21,11 / fast_pskip=0 / chroma_qp_offset=-3 / threads=6 / lookahead_threads=1 / sliced_threads=0 / nr=0 / decimate=0 / interlaced=0 / bluray_compat=0 / constrained_intra=0 / bframes=3 / b_pyramid=2 / b_adapt=2 / b_bias=0 / direct=3 / weightb=1 / open_gop=0 / weightp=2 / keyint=250 / keyint_min=10 / scenecut=40 / intra_refresh=0 / rc_lookahead=50 / rc=2pass / mbtree=1 / bitrate=128 / ratetol=1.0 / qcomp=0.60 / qpmin=0 / qpmax=69 / qpstep=4 / cplxblur=20.0 / qblur=0.5 / vbv_maxrate=14000 / vbv_bufsize=14000 / nal_hrd=none / filler=0 / ip_ratio=1.40 / aq=1:1.00
Дата кодирования                         : UTC 2015-12-29 11:27:03
Дата пометки                             : UTC 2015-12-29 11:27:11

Аудио
Идентификатор                            : 2
Формат                                   : AAC
Формат/Информация                        : Advanced Audio Codec
Профиль формата                          : LC
Идентификатор кодека                     : 40
Продолжительность                        : 4 ч. 14 м.
Вид битрейта                             : Переменный
Битрейт                                  : 56,0 Кбит/сек
Максимальный битрейт                     : 61,7 Кбит/сек
Каналы                                   : 2 канала
Расположение каналов                     : Front: L R
Частота                                  : 44,1 КГц
Частота кадров                           : 43,066 кадра/сек (1024 spf)
Метод сжатия                             : С потерями
Размер потока                            : 102 Мбайт (30%)
Дата кодирования                         : UTC 2015-12-29 10:24:08
Дата пометки                             : UTC 2015-12-29 11:27:11

Скриншоты:



Время раздачи: 24/7 (до появления первых 3-5 скачавших)

bingbot - Лучшая благодарность поделиться ссылкой с друзьями в соц. сетях

Постеры

Соцсети

 

Статистика

Автор: Nik
Добавлен: 15 авг 2016, 01:23
Размер: 344.98 МБ
Размер: 361 736 278 байт
Сидеров: 124
Личеров: 12
Скачали: 11
Здоровье: 100%
Раздающих: 100%
Статус:
Скорость скачивания: 0 байт/сек
Скорость раздачи: 0 байт/сек
Последний сидер: 14 дней 4 часа 24 минуты 25 секунд назад
Последний личер: 14 дней 4 часа 24 минуты 25 секунд назад
Приватный: Нет (DHT включён)
Скачать торрент
Скачать торрент
[ Размер 17.83 КБ / Просмотров 46 ]

Поделиться



  • Похожие торренты
    Ответы
    Просмотры
    Последнее сообщение

Вернуться в Разное (Компьютер)